Bejelentkezés

Keresés a fórumban

Kulcsszó
Rendszer üzemeltetés

TÉMA: TRP fájlok lejátszása

TRP fájlok lejátszása 2015 jan. 20 15:31 #1653

  • toroka
  • toroka profilkép
  • Nem elérhető
  • Adminisztrátor
  • Hozzászólások: 467
  • Köszönetek: 43
  • Karma: 9
A kérdés kábel tv dekóder használatához kapcsolódik - esetemben műholdas a kapcsolódás, de ez a lényegen nem változtat.

A lényeg, hogy olyan beltéri egységem van, amivel külső adathordozóra felvétel készíthető. A mentett fájl formátuma .trp (mpeg stream). A dekóderen le tudom játszani, de szeretném számítógépen is elérni azokat. A fájlokat amúgy is kimentem PC-re, a tároló kapacitásának véges volta miatt, de macera vissza másolni és úgy megnézni.

Keresgéltem a neten és találtam egy windowsos megoldás mellett utalást arra, hogy a VLC elvileg képes játszani, illetve az ffmpeg tudja konvertálni valamilyen értelmes formátumra, de nekem eddig egyik sem sikerül. Igaz a kutatásaim elején járok, így nem nagyon látom át a követelményeket.

Van-e valakinek valamilyen tapasztalata e téren, vagy ötlete, hogy merrefelé keresgéljek?
Török Á.
Utolsó szerkesztés: 2015 jan. 20 15:59 Írta: toroka.
Nyilvános megtekintési jogosultság letiltva.

TRP fájlok lejátszása 2015 jan. 20 23:39 #1654

  • attuska
  • attuska profilkép
  • Nem elérhető
  • Arany fokozatú fórumozó
  • Hozzászólások: 199
  • Köszönetek: 22
  • Karma: 3
Ismereteim szerint az ffmpeg ismeri, le tudja játszani és konvertálni képes.
Nyilvános megtekintési jogosultság letiltva.

TRP fájlok lejátszása 2015 jan. 21 07:43 #1655

  • toroka
  • toroka profilkép
  • Nem elérhető
  • Adminisztrátor
  • Hozzászólások: 467
  • Köszönetek: 43
  • Karma: 9
Attuska!

Ezt a városi legendát én is olvastam, de egyelőre szexuálja csinálni. Nem tudom, milyen könyvtárak hiányoznak. (Azt írják, hogy a csak gstreamer kell neki.) Lehet, hogy ezek megvannak, csak a parancsot nem tudom rendesen paraméterezni. Sok egyéb mellett a videók lelki élete is távol áll tőlem. :(

A FF Multi Converter (ffmpeg gui) a trp-t nem soroja fel, mint ismert formátumot.

Az ffmpeg szerint videó stream-ek feldogozásához nincs dekódere (l. ffmpeg -decoders kimenete), de lehet, hogy csak nálam. Még dolgozom az ügyön. Valami TsRemux, meg ProjectX irányába kell nézelődni.

Folyt. köv.
Török Á.
Utolsó szerkesztés: 2015 jan. 21 07:44 Írta: toroka.
Nyilvános megtekintési jogosultság letiltva.

TRP fájlok lejátszása 2015 jan. 21 07:59 #1656

  • attuska
  • attuska profilkép
  • Nem elérhető
  • Arany fokozatú fórumozó
  • Hozzászólások: 199
  • Köszönetek: 22
  • Karma: 3
Mivel én is műholdazom, érdekel az eseted.
Jó, hogy az én beltérim sima ts -ként vesz fel mindent, amivel az avidemuxszal szépen elboldogulok. Sőt, a tévém is simám lejátszik minden ts -t és h264 -es avi fájlt usb -ről.
Letöltöttem egy trp fájlt. www.dveo.com/downloads/VGA2/city_35.trp

Ezt simán lejátssza nekem a xine, az mplayer.
A mencoder is simán át tudja konvertálni.
mencoder city_35.trp -oac lavc -ovc lavc -o valami.avi

Lehet, hogy a beltérid kódoltan veszi fel a ts -t?
Ekkor ugyanis csak a beltérivel lehet lejátszani, a benne lévő előfizetői kártyával együtt.
Próbáld ki szabadon fogható adásról készített felvétellel, ha a mencoder nem viszi!
Utolsó szerkesztés: 2015 jan. 21 08:15 Írta: attuska.
Nyilvános megtekintési jogosultság letiltva.

TRP fájlok lejátszása 2015 jan. 21 13:53 #1657

  • attuska
  • attuska profilkép
  • Nem elérhető
  • Arany fokozatú fórumozó
  • Hozzászólások: 199
  • Köszönetek: 22
  • Karma: 3
Most néztem, az ffplay, az ffmpeg alap lejátszója is szépen viszi a példafájlocskát.
attila:~/homok$ ffplay city_35.trp
ffplay version 2.2.4 Copyright (c) 2003-2014 the FFmpeg developers
  built on Jul  9 2014 13:02:38 with gcc 4.8.3 (GCC)
  configuration: --prefix=/usr --mandir=/usr/share/man --disable-debug --disable-static --enable-avfilter --enable-avisynth --enable-avresample --enable-dxva2 --enable-frei0r --enable-fontconfig --enable-gnutls --enable-gpl --enable-gray --enable-hwaccel=h263_vaapi --enable-hwaccel=h263_vdpau --enable-hwaccel=h264_vaapi --enable-hwaccel=h264_vaapi --enable-hwaccel=h264_vda --enable-hwaccel=mpeg1_vdpau --enable-hwaccel=mpeg2_vaapi --enable-hwaccel=mpeg2_vdpau --enable-hwaccel=mpeg4_vaapi --enable-hwaccel=mpeg4_vdpau --enable-hwaccel=vc1_vaapi --enable-hwaccel=vc1_vdpau --enable-hwaccel=wmv3_vaapi --enable-hwaccel=wmv3_vdpau --enable-libass --enable-libbluray --enable-libcdio --enable-libcaca --enable-libcelt --enable-libdc1394 --enable-libfreetype --enable-libfaac --enable-libgsm --enable-libmodplug --enable-libmp3lame --enable-libopencore-amrnb --enable-libopencore-amrwb --enable-libopencv --enable-libopenjpeg --enable-libpulse --enable-libschroedinger --enable-libspeex --enable-libtheora --enable-libv4l2 --enable-libvorbis --enable-libvpx --enable-libx264 --enable-libx265 --enable-libxvid --enable-libzvbi --enable-nonfree --enable-openal --enable-openssl --enable-pic --enable-pthreads --enable-postproc --enable-shared --enable-swresample --enable-swscale --enable-vaapi --enable-vdpau --enable-version3 --enable-x11grab
  libavutil      52. 66.100 / 52. 66.100
  libavcodec     55. 52.102 / 55. 52.102
  libavformat    55. 33.100 / 55. 33.100
  libavdevice    55. 10.100 / 55. 10.100
  libavfilter     4.  2.100 /  4.  2.100
  libavresample   1.  2.  0 /  1.  2.  0
  libswscale      2.  5.102 /  2.  5.102
  libswresample   0. 18.100 /  0. 18.100
  libpostproc    52.  3.100 / 52.  3.100
Input #0, mpegts, from 'city_35.trp':B vq=    0KB sq=    0B f=0/0   
  Duration: 00:00:08.18, start: 0.213333, bitrate: 40671 kb/s
  Program 1 
    Stream #0:0[0x31]: Video: mpeg2video (Main) ([2][0][0][0] / 0x0002), yuv420p(tv, bt470bg), 1280x720 [SAR 1:1 DAR 16:9], max. 39000 kb/s, 30 fps, 30 tbr, 90k tbn, 60 tbc
    Stream #0:1[0x34]: Audio: mp2 ([3][0][0][0] / 0x0003), 48000 Hz, stereo, s16p, 224 kb/s
   6.80 A-V: -0.011 fd=   3 aq=   11KB vq=  805KB sq=    0B f=0/0   
attila:~/homok$
Utolsó szerkesztés: 2015 jan. 21 13:56 Írta: attuska.
Nyilvános megtekintési jogosultság letiltva.

TRP fájlok lejátszása 2015 jan. 22 04:02 #1658

  • toroka
  • toroka profilkép
  • Nem elérhető
  • Adminisztrátor
  • Hozzászólások: 467
  • Köszönetek: 43
  • Karma: 9
attuska beküldte:
...
Letöltöttem egy trp fájlt. www.dveo.com/downloads/VGA2/city_35.trp

Ezt simán lejátssza nekem a xine, az mplayer.
A mencoder is simán át tudja konvertálni.
mencoder city_35.trp -oac lavc -ovc lavc -o valami.avi

Lehet, hogy a beltérid kódoltan veszi fel a ts -t?
Ekkor ugyanis csak a beltérivel lehet lejátszani, a benne lévő előfizetői kártyával együtt.
Próbáld ki szabadon fogható adásról készített felvétellel, ha a mencoder nem viszi!

Még az is lehet, hogy kódolja, de ahogy olvastam a trp és ts között az alapvető különbség, hogy előbbiből hiányoznak a videó lejátszásához szükséges beállítási információk - vagy mik.

Az idézett linken található file-t mindjárt kipróbálom én is.

Amúgy a következő hozzászólásod alapján (ffplay) úgy látom, néhány könyvtár hiányzik PCLOS alatt, ezért írtam a PCLOS fórumára.
Török Á.
Nyilvános megtekintési jogosultság letiltva.
Oldalmegjelenítési idő: 0.090 másodperc